请选择 进入手机版 | 继续访问电脑版

中新圈子

 找回密码
 立即注册
查看: 1460|回复: 9

[电影资源] 星际传奇3 [导演剪辑版] Riddick 2013 Director's Cut 720p BluRay DTS x26

[复制链接]

该用户从未签到

0

主题

175

帖子

10

积分

新手上路

Rank: 1

积分
10
发表于 2014-5-11 14:25:37 来自手机 | 显示全部楼层 |阅读模式
星际传奇3/星兽浩劫(港)/超世纪战警:暗黑对决(台) [导演剪辑版]
Riddick 2013 Director's Cut 720p BluRay DTS x264




                               
登录/注册后可看大图



◎片  名 Riddick
◎译  名 星际传奇3/星兽浩劫(港)/超世纪战警: 暗黑对决(台)
◎年  代 2013
◎地  区 英国/美国
◎类  别 动作/科幻/惊悚
◎语  言 英语
◎片  长 126分钟
◎IMDB评分  6.5/10 (50,918 votes)
◎导  演 大卫·杜西 David Twohy
◎主  演 范·迪塞尔 Vin Diesel  ....Riddick
      卡尔·厄本 Karl Urban  ....Vaako
      凯缇·萨克霍夫 Katee Sackhoff  ....Dahl
      博基姆·伍德拜因 Bokeem Woodbine  ....Moss
      戴夫·巴蒂斯塔 Dave Batista  ....Diaz
      诺兰·杰拉德·冯克 Nolan Gerard Funk  ....Luna
      詹迪·莫拉 Jordi Mollà  ....Santana

◎简  介

  被自己的同伴背叛并遗弃之后,瑞迪克发现自己又变成了一个人,在一个不知名的星球上生活。而外面的人,都认为他已经死了,而将他的名字从赏金猎人的名册中划掉了。为了活命,瑞迪克只能慢慢地去熟悉那些怪物猎兽的习性和生活习惯,并想出无数的办法来对付他们。这种粗粝的生活让瑞迪克变得更为强大--远远比以往更为强大。

  得知瑞迪克没有死之后,银河系把对他的赏金提高了一倍。各种各样的赏金猎人闻风而动,他们从银河系的四面八方赶来,就是为了取得瑞迪克的首级,好回去领取赏金。在来到这个星球之后,这些赏金猎人发现自己根本不是瑞迪克的对手,而他们自己也渐渐变成了瑞迪克手下的复仇的牺牲品。

  在设计抓住瑞迪克之后,赏金猎人觉得自己已经是胜券在握了,但是他们不知道的是,这个时候,真正恐怖的事情才刚刚开始,那些嗜血的怪兽,已经全体出动,要把这群人类杀光吃尽……

◎评  论

  在这个科幻大片多数都是无脑大作的时代,本片的主创人员仍然致力于奉献一场传统的类型片娱乐的努力是值得称道的。
  ——《视听俱乐部》

  当然,本片没有什么新鲜的内容,但是编导大卫·杜西在片中融入了足够多的娱乐元素,让观众对这部稍微有些过长的作品还能保持住兴趣。
  ——《芝加哥太阳报》

  这不是一部完美的影片、但却是一部足够好的科幻动作惊悚片。
  ——《后视镜》

  本片的目标原本就不高,但也仍然没能命中靶心。
  ——《亚利桑那共和报》

  支持男主角的唯一原因大概只能是因为他的名字印在了观众的票根上;但是他是如此的无趣、而他的追杀者们又如此的怪异,让观众忍不住想要鼓励电影赶紧杀掉它的主人公……
  ——《村之声》

◎幕后制作

  险些流产的续集

  在独立的小众的科幻电影界里,一直有一套科幻片颇为令人关注,这就是范·迪塞尔主演的《星际传奇》。虽然说影片的情节无外乎就是外星的猎食人类的异形怪物、赏金猎人和逍遥法外的凶手,但是这套电影因为独特的人生观和具有西部片特色的主题,而受到了一部分影迷的欢迎。只不过,2004年的《星际传奇2》没有获得料想之中的票房,而使得这部《星际传奇3》险些流产。

  在《星际传奇2》票房失利之后,主演,也是影片监制的范·迪塞尔和导演大卫·杜西便想把《星际传奇3》打造成一部独立的低成本影片,而且自己寻找上映的可能性,不想依托于大制片厂的发行。2006年,《星际传奇3》的传闻开始流传于电影圈。影片的导演大卫·杜西说:“的确是这样,这部电影距离上一部足足有9年时间了。我和迪塞尔大概是5年之前开始严肃认真地讨论如何拍摄这部续集的。上一部电影,是一部有大制片公司参与制作的电影,有很大的投资,但是效果却并不是那么好。那部电影满足了一部分粉丝的需要,但是却没能满足所有的粉丝。所以,我们决定,一定要在这部电影里,重新展示出《星际传奇》中的那种小众、恐惧的特色来,而不是用特效哗众取宠。”

  其实,要在一部并不成功的电影的“尸体”上重新站起来,并不是一件容易的事情。大卫·杜西说:“很多事情超出了我们的预料和判断。首先剧本问题就一直僵持不下。迪塞尔给了我很多的意见和支持,毕竟,瑞迪克这个角色是属于他的,他希望这个角色能更有层次和深度。而且,我们也考虑到了影片的气质问题,我们希望它更像是《星际传奇》而不是《星际传奇2》。当然,最大的,还是影片的成本问题。我们一开始想着要用独立的方式拍摄这部电影。一开始,我准备用3000-4000万美元拍摄这部电影。后来,我们很顺利地按照自己的想法拍摄了它。影片最终的成本大概是3800万美元。因为没有了大制片厂的参与,这部电影的自由度更高,也更加能满足粉丝们的需求。”

  灵魂人物范·迪塞尔

  瑞迪克这个角色是属于迪塞尔的,可能也只能属于迪塞尔一个人。为了这个角色,迪塞尔做了很多的准备工作,除了把自己的心态从《速度与激情》中抽离出来之外,他还进行了一定的体能锻炼。迪塞尔说:“几乎所有人都知道,我非常喜欢瑞迪克这个角色,而且我也为他做了大量的准备工作,无论是身体还是心态上的。甚至连剧本和人物性格,我都参与了创作。应该说,这是我最为看重的一个角色。我们之所以能从2006年开始,足足用了7年时间在这部电影上,就是因为我和大卫·杜西非常珍视这部电影,这是我们的财富。”

  对于影片和迪塞尔的表演,大卫·杜西赞不绝口。他说:“对于那些影片的忠实粉丝来说,这部电影是让他们如愿以偿了。因为没有大制片公司的影响,这部电影是一部纯粹的、回归风格的科幻作品。迪塞尔的表演和扮相还是一如既往。在这部电影中,冲突和暴力会被放得更大,动作场面和外星的怪物也会更多、更有杀伤力;影片的风格也会更加黑暗。迪塞尔是一个值得托付和令人放心的演员。他对于工作可谓是尽职尽责,一丝不苟。因为我们知道,9年时间,等待、制作一部电影是什么滋味,所以我们不会对它掉以轻心的。”

  既然是一部科幻片,那么特效镜头就是少不了的。除了制作迪塞尔在片中的那一双会发光的眼睛之外,这部电影中还有接近900个特效镜头。大卫·杜西说:“影片中的特效镜头不少,大概有850-900个。在后期的时候,我们一遍一遍看着样片,然后考虑哪些镜头要做成特效镜头再插到电影里面去,这是一个很烦人的工作,因为每个细节都要照顾到才行。在这部电影里,我使用的ARRI Alexa算是目前最先进的数码电影摄影机系统了。这个机器的传感器能提供14个曝光度的宽容度。而当年,柯达的胶片也不过只能提供12个而已。我觉得,数码已经是大势所趋了,而且加上后期的便利程度和拍摄时候的自由度,再考虑到成本问题,我没有理由选择胶片。而且,数码直接拍摄,后期调色也非常容易。要知道,《星际传奇3》是一部很仰仗于后期的电源,我们几乎每一个镜头都经过了调色和修整。”

◎花絮

  ·《星际传奇2》的票房表现差强人意,制片公司曾经一度想终结这个系列。但是因为范·迪塞尔目前人气正佳,所以《星际传奇3》得以被制作出来。距离上一部电影,这两部电影之间隔了9年之久。

  ·除了电影,《星际传奇》系列还有一部动画片和两款游戏。

  ·在剧本创作阶段,影片所使用的标题是《死人的猖獗行为》(Dead Man Stalking)。



  • Info:
  • Video
  • ID : 1
  • Format : AVC
  • Format/Info : Advanced Video Codec
  • Format profile : High@L4.1
  • Format settings, CABAC : Yes
  • Format settings, ReFrames : 12 frames
  • Codec ID : V_MPEG4/ISO/AVC
  • Duration : 2h 6mn
  • Bit rate : 8 507 Kbps
  • Width : 1 280 pixels
  • Height : 534 pixels
  • Display aspect ratio : 2.40:1
  • Frame rate mode : Constant
  • Frame rate : 23.976 fps
  • Color space : YUV
  • Chroma subsampling : 4:2:0
  • Bit depth : 8 bits
  • Scan type : Progressive
  • Bits/(Pixel*Frame) : 0.519
  • Stream size : 7.54 GiB (83%)
  • Title : Riddick.2013.Director\'s.Cut.720p.BluRay.DTS.x264-RARBG
  • Writing library : x264 core 142 r2389kMod 956c8d8
  • Language : English
  • Default : No
  • Forced : No

  • Audio
  • ID : 2
  • Format : DTS
  • Format/Info : Digital Theater Systems
  • Mode : 16
  • Format settings, Endianness : Big
  • Codec ID : A_DTS
  • Duration : 2h 6mn
  • Bit rate mode : Constant
  • Bit rate : 1 509 Kbps
  • Channel(s) : 6 channels
  • Channel positions : Front: L C R, Side: L R, LFE
  • Sampling rate : 48.0 KHz
  • Bit depth : 24 bits
  • Compression mode : Lossy
  • Stream size : 1.34 GiB (15%)
  • Title : Riddick.2013.Director\'s.Cut.720p.BluRay.DTS.x264-RARBG
  • Language : English
  • Default : Yes
  • Forced : No

  • Text #1
  • ID : 3
  • Format : UTF-8
  • Codec ID : S_TEXT/UTF8
  • Codec ID/Info : UTF-8 Plain Text
  • Title : English
  • Language : English
  • Default : No
  • Forced : No

  • Text #2
  • ID : 4
  • Format : UTF-8
  • Codec ID : S_TEXT/UTF8
  • Codec ID/Info : UTF-8 Plain Text
  • Title : English (SDH)
  • Language : English
  • Default : No
  • Forced : No

  • Menu
  • 00:00:00.000 : en:Chapter 1
  • 00:05:35.418 : en:Chapter 2
  • 00:12:10.521 : en:Chapter 3
  • 00:23:27.364 : en:Chapter 4
  • 00:27:56.425 : en:Chapter 5
  • 00:32:11.221 : en:Chapter 6
  • 00:38:03.698 : en:Chapter 7
  • 00:44:20.283 : en:Chapter 8
  • 00:48:40.876 : en:Chapter 9
  • 00:56:19.668 : en:Chapter 10
  • 01:01:16.673 : en:Chapter 11
  • 01:07:35.093 : en:Chapter 12
  • 01:15:23.436 : en:Chapter 13
  • 01:19:58.836 : en:Chapter 14
  • 01:26:51.832 : en:Chapter 15
  • 01:31:27.107 : en:Chapter 16
  • 01:39:32.717 : en:Chapter 17
  • 01:45:32.701 : en:Chapter 18
  • 01:53:45.652 : en:Chapter 19
  • 02:02:56.160 : en:Chapter 20


                               
登录/注册后可看大图




                               
登录/注册后可看大图




                               
登录/注册后可看大图




                               
登录/注册后可看大图
回复

使用道具 举报

该用户从未签到

0

主题

146

帖子

10

积分

新手上路

Rank: 1

积分
10
发表于 2014-5-11 15:04:32 | 显示全部楼层
thanks a lot ...
回复 支持 反对

使用道具 举报

该用户从未签到

0

主题

179

帖子

10

积分

新手上路

Rank: 1

积分
10
发表于 2014-5-11 15:11:46 | 显示全部楼层
烂片一部,鉴定完毕
回复 支持 反对

使用道具 举报

该用户从未签到

0

主题

146

帖子

10

积分

新手上路

Rank: 1

积分
10
发表于 2014-5-11 15:14:25 | 显示全部楼层
好看的片子
回复 支持 反对

使用道具 举报

该用户从未签到

0

主题

174

帖子

10

积分

新手上路

Rank: 1

积分
10
发表于 2014-5-11 15:20:33 | 显示全部楼层
好片子 支持
回复 支持 反对

使用道具 举报

该用户从未签到

0

主题

179

帖子

10

积分

新手上路

Rank: 1

积分
10
发表于 2014-5-11 15:20:39 | 显示全部楼层
感谢楼主分享
回复 支持 反对

使用道具 举报

该用户从未签到

0

主题

173

帖子

10

积分

新手上路

Rank: 1

积分
10
发表于 2014-5-11 15:37:36 | 显示全部楼层
谢谢分享。。。
回复 支持 反对

使用道具 举报

该用户从未签到

0

主题

178

帖子

10

积分

新手上路

Rank: 1

积分
10
发表于 2014-5-11 15:49:16 | 显示全部楼层
还没看过样  补齐吧
回复 支持 反对

使用道具 举报

该用户从未签到

0

主题

170

帖子

10

积分

新手上路

Rank: 1

积分
10
发表于 2014-5-11 16:02:23 | 显示全部楼层
谢谢楼主分享
回复 支持 反对

使用道具 举报

该用户从未签到

0

主题

151

帖子

10

积分

新手上路

Rank: 1

积分
10
发表于 2014-5-11 16:23:19 | 显示全部楼层
多谢分享                             
回复 支持 反对

使用道具 举报

懒得打字嘛,点击右侧快捷回复 【右侧内容,后台自定义】
您需要登录后才可以回帖 登录 | 立即注册

本版积分规则

Archiver|手机版|小黑屋|中新圈子

GMT+8, 2021-2-26 20:43 , Processed in 0.099103 second(s), 45 queries .

Powered by Discuz! X3.4

Copyright © 2001-2020, Tencent Cloud.

广告合作:526812301@qq.com,仅邮箱,不好友。
本站内容如有侵犯他人权益,请到公告版块留言并发至邮箱删除,中新圈子内的帖子都由用户提供,内容和观点与本站无关,请真伪自辩!
快速回复 返回顶部 返回列表