请选择 进入手机版 | 继续访问电脑版

中新圈子

 找回密码
 立即注册
查看: 5266|回复: 9

[电影资源] 魔法之家 The House Of Magic 2013 720p BluRay DTS x264 3.9G

[复制链接]

该用户从未签到

0

主题

163

帖子

10

积分

新手上路

Rank: 1

积分
10
发表于 2014-5-12 02:15:22 来自手机 | 显示全部楼层 |阅读模式
魔法之家 The House Of Magic 2013 720p BluRay DTS x264



                               
登录/注册后可看大图




导演: Ben Stassen / Jeremy Degruson
编剧: James Flynn / Dominic Paris / Ben Stassen
类型: 动画 / 家庭 / 冒险
制片国家/地区: 比利时 Belgium
语言: 英语 / 法语 / 德语
上映日期: 2013-12-25(法国)
片长: 85分钟
又名: Le Manoir Magique
IMDb链接: tt3148834


魔法之家的剧情简介  ·  ·  ·  ·  ·  ·

  一只被遗弃的小猫误打误撞进入一幢神秘的别墅。别墅的主人劳伦斯,一位退休魔术师,收养了小猫并为它取名「雷电」。很快,雷电就和别墅里各色有趣的机器人们打成了一片。这间仿佛被施了魔法的别墅既神奇又有趣....但是就在劳伦斯住院的期间,他的侄子企图偷偷卖掉别墅。雷电想到了一个好办法:把这幢别墅变成鬼屋!它和它的小伙伴们将齐心协力守护家园  



  • Info:
  • Video
  • ID : 1
  • Format : AVC
  • Format/Info : Advanced Video Codec
  • Format profile : High@L4.1
  • Format settings, CABAC : Yes
  • Format settings, ReFrames : 4 frames
  • Codec ID : V_MPEG4/ISO/AVC
  • Duration : 1h 25mn
  • Bit rate : 5 000 Kbps
  • Width : 1 280 pixels
  • Height : 720 pixels
  • Display aspect ratio : 16:9
  • Frame rate mode : Constant
  • Frame rate : 24.000 fps
  • Color space : YUV
  • Chroma subsampling : 4:2:0
  • Bit depth : 8 bits
  • Scan type : Progressive
  • Bits/(Pixel*Frame) : 0.226
  • Stream size : 2.91 GiB (75%)
  • Title : The.House.Of.Magic.2013.720p.BluRay.DTS.x264-RARBG
  • Writing library : x264 core 130 r2273 b3065e6
  • Language : English
  • Default : Yes
  • Forced : No
  • Color primaries : BT.709
  • Transfer characteristics : BT.709
  • Matrix coefficients : BT.709

  • Audio
  • ID : 2
  • Format : DTS
  • Format/Info : Digital Theater Systems
  • Mode : 16
  • Format settings, Endianness : Big
  • Codec ID : A_DTS
  • Duration : 1h 25mn
  • Bit rate mode : Constant
  • Bit rate : 1 509 Kbps
  • Channel(s) : 6 channels
  • Channel positions : Front: L C R, Side: L R, LFE
  • Sampling rate : 48.0 KHz
  • Bit depth : 24 bits
  • Compression mode : Lossy
  • Stream size : 923 MiB (23%)
  • Title : The.House.Of.Magic.2013.720p.BluRay.DTS.x264-RARBG
  • Language : English
  • Default : YesForced : No


                               
登录/注册后可看大图




                               
登录/注册后可看大图




                               
登录/注册后可看大图
回复

使用道具 举报

该用户从未签到

0

主题

127

帖子

10

积分

新手上路

Rank: 1

积分
10
发表于 2014-5-12 05:07:52 | 显示全部楼层
谢谢楼主鼎力支持呀
回复 支持 反对

使用道具 举报

该用户从未签到

0

主题

153

帖子

10

积分

新手上路

Rank: 1

积分
10
发表于 2014-5-12 05:40:23 | 显示全部楼层
thanks a lot ...
回复 支持 反对

使用道具 举报

该用户从未签到

0

主题

153

帖子

10

积分

新手上路

Rank: 1

积分
10
发表于 2014-5-12 05:44:30 | 显示全部楼层
这个主题有趣
回复 支持 反对

使用道具 举报

该用户从未签到

0

主题

152

帖子

10

积分

新手上路

Rank: 1

积分
10
发表于 2014-5-12 07:04:48 | 显示全部楼层
感谢楼主分享~~~~~~~~~··
回复 支持 反对

使用道具 举报

该用户从未签到

0

主题

175

帖子

10

积分

新手上路

Rank: 1

积分
10
发表于 2014-5-12 07:47:53 | 显示全部楼层
感谢楼主分享!!!
回复 支持 反对

使用道具 举报

该用户从未签到

0

主题

166

帖子

10

积分

新手上路

Rank: 1

积分
10
发表于 2014-5-12 08:26:02 | 显示全部楼层
谢谢分享,辛苦了,支持一下!
回复 支持 反对

使用道具 举报

该用户从未签到

0

主题

169

帖子

10

积分

新手上路

Rank: 1

积分
10
发表于 2014-5-12 08:43:12 | 显示全部楼层
谢谢楼主分享!
回复 支持 反对

使用道具 举报

该用户从未签到

0

主题

173

帖子

10

积分

新手上路

Rank: 1

积分
10
发表于 2014-5-12 08:49:04 | 显示全部楼层
感谢楼主分享
回复 支持 反对

使用道具 举报

该用户从未签到

0

主题

160

帖子

10

积分

新手上路

Rank: 1

积分
10
发表于 2014-5-12 09:02:54 | 显示全部楼层
谢谢分享,为未来孩子收起
回复 支持 反对

使用道具 举报

懒得打字嘛,点击右侧快捷回复 【右侧内容,后台自定义】
您需要登录后才可以回帖 登录 | 立即注册

本版积分规则

Archiver|手机版|小黑屋|中新圈子

GMT+8, 2021-2-27 23:38 , Processed in 0.117138 second(s), 45 queries .

Powered by Discuz! X3.4

Copyright © 2001-2020, Tencent Cloud.

广告合作:526812301@qq.com,仅邮箱,不好友。
本站内容如有侵犯他人权益,请到公告版块留言并发至邮箱删除,中新圈子内的帖子都由用户提供,内容和观点与本站无关,请真伪自辩!
快速回复 返回顶部 返回列表