请选择 进入手机版 | 继续访问电脑版

中新圈子

 找回密码
 立即注册
查看: 5670|回复: 9

[电影资源] 哥斯拉 [4K 修复原盘压制]Godzilla 1998 Mastered 4K BluRay 720p DTS x264

[复制链接]

该用户从未签到

0

主题

152

帖子

10

积分

新手上路

Rank: 1

积分
10
发表于 2014-5-17 15:38:09 | 显示全部楼层 |阅读模式
哥斯拉/酷斯拉/怪兽哥斯拉 [Mastered In 4K 修复原盘压制]
Godzilla 1998 Mastered 4K BluRay 720p DTS x264



                               
登录/注册后可看大图



◎译  名 哥斯拉/酷斯拉/怪兽哥斯拉
◎片  名 Godzilla
◎年  代 1998
◎国  家 美国
◎类  别 动作/科幻/惊怵
◎语  言 英语
◎字  幕 中文
◎IMDB评分  5.1/10 (113,140 votes)
◎片  长 2h:18m:43s
◎导  演 罗兰·艾默里奇Roland Emmerich
◎主  演 马修·布罗德里克 Matthew Broderick....Dr. Niko Tatopoulos
      让·雷诺 Jean Reno....Philippe Roaché
      玛丽亚·皮提罗 Maria Pitillo....Audrey Timmonds
      汉克·阿扎利亚 Hank Azaria....Victor ‘Animal‘ Palotti
      凯文·杜恩 Kevin Dunn....Colonel Hicks
      迈克尔·勒纳 Michael Lerner....Mayor Ebert
      哈里·谢尔 Harry Shearer....Charles Caiman, WIDF Anchor
      道格·萨文特 Doug Savant....Sergeant O‘Neal
      罗伯特·莱萨 Robert Lesser....Murray
      南茜·卡特莱特 Nancy Cartwright....Caiman‘s Secretary
            
◎简  介

      一道亮光划过天际,太平洋上波涛汹涌,海浪以不可思议的速度将一架货机卷入海里;巴哈马丛林中,出现了巨大的脚印;一股神秘的力量一直朝纽约而来,这座人口稠密的都市即将受到这个怪兽“哥斯拉”的袭击。“哥斯拉”是因为核试验造成气候异常而发生变化的恐龙,这只高90英尺庞大怪物的复活使整个纽约陷入一片混乱。科学家、新闻记者、电视台摄影师、军人等都联合起来对付它,但它造成的恐慌和破坏实在太大,以至所到之处全部化成废墟……



  • Info:
  • Video
  • ID : 1
  • Format : AVC
  • Format/Info : Advanced Video Codec
  • Format profile : High@L4.1
  • Format settings, CABAC : Yes
  • Format settings, ReFrames : 5 frames
  • Codec ID : V_MPEG4/ISO/AVC
  • Duration : 2h 18mn
  • Bit rate : 5 252 Kbps
  • Width : 1 280 pixels
  • Height : 534 pixels
  • Display aspect ratio : 2.40:1
  • Frame rate mode : Constant
  • Frame rate : 23.976 fps
  • Color space : YUV
  • Chroma subsampling : 4:2:0
  • Bit depth : 8 bits
  • Scan type : Progressive
  • Bits/(Pixel*Frame) : 0.320
  • Stream size : 4.96 GiB (76%)
  • Title : Godzilla.1998.Mastered.4K.BluRay 720p.DTS.x264-RARBG
  • Writing library : x264 core 133 r2334 a3ac64b
  • Language : English
  • Default : Yes
  • Forced : No

  • Audio
  • ID : 2
  • Format : DTS
  • Format/Info : Digital Theater Systems
  • Mode : 16
  • Format settings, Endianness : Big
  • Codec ID : A_DTS
  • Duration : 2h 18mn
  • Bit rate mode : Constant
  • Bit rate : 1 509 Kbps
  • Channel(s) : 6 channels
  • Channel positions : Front: L C R, Side: L R, LFE
  • Sampling rate : 48.0 KHz
  • Bit depth : 24 bits
  • Compression mode : Lossy
  • Stream size : 1.46 GiB (22%)
  • Title : Godzilla.1998.Mastered.4K.BluRay 720p.DTS.x264-RARBG
  • Language : English
  • Default : YesForced : No
回复

使用道具 举报

该用户从未签到

0

主题

145

帖子

10

积分

新手上路

Rank: 1

积分
10
发表于 2014-5-17 15:45:44 | 显示全部楼层
谢谢 楼主分享
回复 支持 反对

使用道具 举报

该用户从未签到

0

主题

176

帖子

10

积分

新手上路

Rank: 1

积分
10
发表于 2014-5-17 15:54:03 | 显示全部楼层
非常感谢楼主,支持下!!!!!!!!!!!
回复 支持 反对

使用道具 举报

该用户从未签到

0

主题

173

帖子

10

积分

新手上路

Rank: 1

积分
10
发表于 2014-5-17 15:59:40 | 显示全部楼层
问下这是哪冒出来的论坛啊,我怎么不知道,是属于CHD旗下的网站吗?
回复 支持 反对

使用道具 举报

该用户从未签到

0

主题

162

帖子

10

积分

新手上路

Rank: 1

积分
10
发表于 2014-5-17 16:04:01 | 显示全部楼层
Thanks!!!!!!!!!!!!!!!!
回复 支持 反对

使用道具 举报

该用户从未签到

1

主题

169

帖子

290

积分

中级会员

Rank: 3Rank: 3

积分
290
发表于 2014-5-17 16:05:43 | 显示全部楼层
多謝樓主的分享
最喜歡看怪獸片
回复 支持 反对

使用道具 举报

该用户从未签到

0

主题

160

帖子

10

积分

新手上路

Rank: 1

积分
10
发表于 2014-5-17 16:23:55 | 显示全部楼层
谢谢楼主分享
回复 支持 反对

使用道具 举报

该用户从未签到

0

主题

141

帖子

10

积分

新手上路

Rank: 1

积分
10
发表于 2014-5-17 16:25:28 | 显示全部楼层
非常感谢分享!!!
回复 支持 反对

使用道具 举报

该用户从未签到

0

主题

180

帖子

10

积分

新手上路

Rank: 1

积分
10
发表于 2014-5-17 16:53:14 | 显示全部楼层
thanks a lot ...
回复 支持 反对

使用道具 举报

该用户从未签到

0

主题

150

帖子

10

积分

新手上路

Rank: 1

积分
10
发表于 2014-5-17 16:54:15 | 显示全部楼层
thank you,dude.
回复 支持 反对

使用道具 举报

懒得打字嘛,点击右侧快捷回复 【右侧内容,后台自定义】
您需要登录后才可以回帖 登录 | 立即注册

本版积分规则

Archiver|手机版|小黑屋|中新圈子

GMT+8, 2021-3-3 13:59 , Processed in 0.178272 second(s), 40 queries .

Powered by Discuz! X3.4

Copyright © 2001-2020, Tencent Cloud.

广告合作:526812301@qq.com,仅邮箱,不好友。
本站内容如有侵犯他人权益,请到公告版块留言并发至邮箱删除,中新圈子内的帖子都由用户提供,内容和观点与本站无关,请真伪自辩!
快速回复 返回顶部 返回列表